<?xml version="1.0" standalone="no"?>
<!DOCTYPE svg PUBLIC "-//W3C//DTD SVG 1.1//EN" "http://www.w3.org/Graphics/SVG/1.1/DTD/svg11.dtd" >
<svg xmlns="http://www.w3.org/2000/svg" xmlns:xlink="http://www.w3.org/1999/xlink" version="1.1">
<metadata>
Created by FontForge 20190801 at Thu Nov  2 21:40:55 2017
 By www-data
Copyright (c) Datto, Inc. All rights reserved.
</metadata>
<defs>
<font id="DDINBold" horiz-adv-x="600" >
  <font-face 
    font-family="DDINBold"
    font-weight="700"
    font-stretch="normal"
    units-per-em="1000"
    panose-1="2 11 8 4 3 2 2 3 2 4"
    ascent="831"
    descent="-169"
    x-height="520"
    cap-height="690"
    bbox="-161 -168 1213 898"
    underline-thickness="50"
    underline-position="-150"
    unicode-range="U+000D-FB02"
  />
<missing-glyph 
d="M101 690h397v-690h-397v690zM464 34v622h-329v-622h329z" />
    <glyph glyph-name="fi" unicode="fi" horiz-adv-x="575" 
d="M226.5 593.5q-12.5 -12.5 -12.5 -37.5v-36h93v-87h-93v-433h-123v433h-55v87h55v31q0 66 37.5 102.5t106.5 36.5h72v-84h-41q-27 0 -39.5 -12.5zM393 520h123v-520h-123v520zM391 690h126v-99h-126v99z" />
    <glyph glyph-name="fl" unicode="fl" horiz-adv-x="621" 
d="M226.5 593.5q-12.5 -12.5 -12.5 -37.5v-36h93v-87h-93v-433h-123v433h-55v87h55v31q0 66 37.5 102.5t106.5 36.5h72v-84h-41q-27 0 -39.5 -12.5zM429.5 41q-41.5 41 -41.5 117v532h124v-524q0 -32 11.5 -45.5t37.5 -13.5h42v-107h-57q-75 0 -116.5 41z" />
    <glyph glyph-name=".notdef" 
d="M101 690h397v-690h-397v690zM464 34v622h-329v-622h329z" />
    <glyph glyph-name=".null" horiz-adv-x="0" 
 />
    <glyph glyph-name="nonmarkingreturn" unicode="&#xd;" horiz-adv-x="229" 
 />
    <glyph glyph-name="space" unicode=" " horiz-adv-x="229" 
 />
    <glyph glyph-name="exclam" unicode="!" horiz-adv-x="249" 
d="M54 690h141l-24 -460h-93zM59 130h131v-130h-131v130z" />
    <glyph glyph-name="quotedbl" unicode="&#x22;" horiz-adv-x="381" 
d="M38 690h117v-298h-117v298zM227 690h116v-298h-116v298z" />
    <glyph glyph-name="numbersign" unicode="#" horiz-adv-x="539" 
d="M431 406l-14 -110h79v-92h-91l-27 -204h-104l27 204h-106l-27 -204h-103l27 204h-74v92h86l15 110h-76v92h88l25 192h103l-25 -192h106l25 192h103l-25 -192h78v-92h-90zM328 406h-106l-15 -110h106z" />
    <glyph glyph-name="dollar" unicode="$" horiz-adv-x="502" 
d="M411 96q-41 -48 -114 -62v-94h-103v92q-75 11 -118 61.5t-47 133.5h115q6 -50 29.5 -70.5t70.5 -20.5q86 0 86 78q0 35 -17 53.5t-55 25.5l-49 9q-84 15 -124.5 57.5t-40.5 117.5q0 74 40 122t110 62v79h103v-80q65 -14 103 -60.5t43 -120.5h-118q-4 43 -24 62.5
t-60 19.5q-37 0 -57 -19.5t-20 -55.5q0 -32 19 -50t62 -26l57 -11q75 -14 112.5 -57t37.5 -118q0 -80 -41 -128zM132 690z" />
    <glyph glyph-name="percent" unicode="%" horiz-adv-x="904" 
d="M72.5 301.5q-32.5 37.5 -32.5 111.5v142q0 70 34.5 105.5t100.5 35.5q69 0 101.5 -35t32.5 -106v-142q0 -74 -32.5 -111.5t-101.5 -37.5q-70 0 -102.5 37.5zM595 695h99l-386 -695h-98zM201 366q5 13 5 52v124q0 38 -5.5 52t-25.5 14t-26 -14t-6 -52v-124q0 -37 5.5 -51
t26.5 -14t26 13zM626.5 31.5q-32.5 37.5 -32.5 111.5v142q0 70 34.5 105.5t100.5 35.5q69 0 101.5 -35t32.5 -106v-142q0 -74 -32.5 -111.5t-101.5 -37.5q-70 0 -102.5 37.5zM755 96q5 13 5 52v124q0 38 -5.5 52t-25.5 14t-26 -14t-6 -52v-124q0 -37 5.5 -51t26.5 -14t26 13
z" />
    <glyph glyph-name="ampersand" unicode="&#x26;" horiz-adv-x="598" 
d="M530 107h22v-107h-48q-35 0 -56 13t-48 49l-4 5q-37 -42 -77 -60t-91 -18q-87 0 -135 50t-48 132q0 57 28 106t95 104q-41 57 -57 90.5t-16 69.5q0 46 22 82.5t60.5 57t86.5 20.5q49 0 87.5 -21t59.5 -57.5t21 -80.5q0 -46 -25 -86t-88 -93l87 -117l69 86l78 -69
l-83 -104l19 -26q20 -26 41 -26zM226 589q-15 -16 -15 -43q0 -19 8.5 -38t36.5 -58q37 31 49.5 51.5t12.5 44.5q0 26 -15 42.5t-38 16.5q-24 0 -39 -16zM284 108.5q21 12.5 49 45.5l-101 138q-38 -33 -53.5 -59t-15.5 -53q0 -39 20 -61.5t55 -22.5q25 0 46 12.5z" />
    <glyph glyph-name="quotesingle" unicode="'" horiz-adv-x="193" 
d="M38 690h117v-298h-117v298z" />
    <glyph glyph-name="parenleft" unicode="(" horiz-adv-x="310" 
d="M45 328q0 225 130 412h90q-48 -95 -72.5 -200.5t-24.5 -211.5q0 -105 25 -211t72 -201h-91q-129 191 -129 412z" />
    <glyph glyph-name="parenright" unicode=")" horiz-adv-x="310" 
d="M117 117q25 106 25 211q0 106 -24.5 211.5t-72.5 200.5h90q130 -187 130 -412q0 -221 -129 -412h-91q47 95 72 201z" />
    <glyph glyph-name="asterisk" unicode="*" horiz-adv-x="377" 
d="M154 486l-78 -45l-31 54l80 46l-80 46l31 54l78 -44v93h69v-94l78 45l30 -54l-80 -46l81 -46l-32 -54l-77 44v-96h-69v97z" />
    <glyph glyph-name="plus" unicode="+" horiz-adv-x="529" 
d="M208 219h-160v114h160v160h114v-160h159v-114h-159v-160h-114v160z" />
    <glyph glyph-name="comma" unicode="," horiz-adv-x="193" 
d="M38 137h117v-200l-117 -99v299z" />
    <glyph glyph-name="hyphen" unicode="-" horiz-adv-x="365" 
d="M45 403h275v-115h-275v115z" />
    <glyph glyph-name="period" unicode="." horiz-adv-x="215" 
d="M38 142h139v-142h-139v142z" />
    <glyph glyph-name="slash" unicode="/" horiz-adv-x="405" 
d="M256 695h104l-212 -705h-103z" />
    <glyph glyph-name="zero" unicode="0" horiz-adv-x="512" 
d="M100.5 48.5q-50.5 59.5 -50.5 178.5v244q0 113 52.5 171.5t153.5 58.5q105 0 155.5 -58t50.5 -172v-244q0 -118 -50.5 -178t-155.5 -60t-155.5 59.5zM315.5 133.5q15.5 30.5 15.5 104.5v214q0 74 -15.5 104t-59.5 30t-59 -30t-15 -104v-214q0 -74 15.5 -104.5t58.5 -30.5
q44 0 59.5 30.5z" />
    <glyph glyph-name="one" unicode="1" horiz-adv-x="348" 
d="M152 545l-116 -84v142l116 87h131v-690h-131v545z" />
    <glyph glyph-name="two" unicode="2" horiz-adv-x="493" 
d="M48 104l229 297q38 51 38 97v14q0 36 -19.5 57t-52.5 21t-52 -22t-19 -61v-16h-127v24q0 54 24.5 96t70.5 66t108 24q60 0 105.5 -25t70 -67t24.5 -93v-17q0 -45 -16 -83t-47 -78l-172 -223h235v-115h-400v104z" />
    <glyph glyph-name="three" unicode="3" horiz-adv-x="504" 
d="M98.5 35.5q-53.5 46.5 -53.5 131.5v21h122v-15q0 -36 20.5 -54.5t59.5 -18.5q37 0 58.5 24t21.5 65v18q0 45 -23 69t-67 24h-35v111h34q38 0 59 22t21 61v15q0 38 -19.5 59.5t-53.5 21.5q-35 0 -54 -19.5t-19 -53.5v-17h-120v17q0 87 52.5 135.5t145.5 48.5
q91 0 143 -49.5t52 -132.5v-15q0 -45 -21 -80.5t-60 -56.5q45 -19 68.5 -60t23.5 -99v-19q0 -61 -26 -106t-73 -69.5t-106 -24.5q-97 0 -150.5 46.5z" />
    <glyph glyph-name="four" unicode="4" horiz-adv-x="521" 
d="M486 110h-56v-110h-131v110h-264v115l197 465h131l-197 -465h133v162h131v-162h56v-115z" />
    <glyph glyph-name="five" unicode="5" horiz-adv-x="497" 
d="M102.5 34q-52.5 45 -52.5 125v15h120v-6q0 -32 20 -50t55 -18q38 0 56.5 24.5t18.5 71.5v52q0 49 -18.5 72.5t-57.5 23.5q-50 0 -71 -47h-113v393h373v-112h-260v-156q40 32 98 32q87 0 131.5 -51.5t44.5 -147.5v-65q0 -95 -53.5 -148t-148.5 -53q-90 0 -142.5 45z" />
    <glyph glyph-name="six" unicode="6" horiz-adv-x="516" 
d="M101.5 43q-56.5 54 -56.5 150v31q0 41 11.5 78t33.5 81l158 307h138l-143 -279q22 10 50 10q81 0 129.5 -51.5t48.5 -140.5v-32q0 -98 -58.5 -153t-154.5 -55q-100 0 -156.5 54zM318 124q22 24 22 67v31q0 43 -22 66.5t-60 23.5t-59.5 -23.5t-21.5 -65.5v-33
q0 -42 21.5 -66t59.5 -24t60 24z" />
    <glyph glyph-name="seven" unicode="7" horiz-adv-x="457" 
d="M427 690v-114l-210 -576h-132l214 576h-269v114h397z" />
    <glyph glyph-name="eight" unicode="8" horiz-adv-x="525" 
d="M153 13.5q-48 24.5 -75.5 70.5t-27.5 106v23q0 47 22 86.5t62 62.5q-32 19 -51.5 53.5t-19.5 79.5v18q0 51 24.5 94t69.5 68.5t106 25.5t106.5 -25.5t69.5 -68.5t24 -94v-18q0 -44 -20 -79t-51 -54q40 -24 61.5 -63.5t21.5 -84.5v-23q0 -61 -27.5 -107t-76 -70.5
t-109.5 -24.5t-109 24.5zM317 436.5q20 22.5 20 57.5v19q0 33 -20.5 55t-53.5 22t-53.5 -22t-20.5 -55v-19q0 -36 20 -58t54 -22t54 22.5zM325.5 125q23.5 25 23.5 67v24q0 40 -23.5 65t-62.5 25q-38 0 -62 -25t-24 -65v-24q0 -41 23 -66.5t63 -25.5q39 0 62.5 25z" />
    <glyph glyph-name="nine" unicode="9" horiz-adv-x="516" 
d="M273 279q-22 -10 -50 -10q-81 0 -129.5 51.5t-48.5 140.5v32q0 98 58.5 153t154.5 55q100 0 156.5 -54t56.5 -150v-31q0 -40 -11.5 -77.5t-33.5 -81.5l-158 -307h-138zM317.5 401.5q21.5 23.5 21.5 65.5v33q0 42 -21.5 66t-59.5 24t-60 -24t-22 -67v-31q0 -43 22 -66.5
t60 -23.5t59.5 23.5z" />
    <glyph glyph-name="colon" unicode=":" horiz-adv-x="215" 
d="M38 142h139v-142h-139v142zM38 480h139v-142h-139v142zM108 520z" />
    <glyph glyph-name="semicolon" unicode=";" horiz-adv-x="215" 
d="M38 480h139v-142h-139v142zM58 137h117v-200l-117 -99v299zM104 520z" />
    <glyph glyph-name="less" unicode="&#x3c;" horiz-adv-x="529" 
d="M48 223v103l432 169v-115l-278 -106l278 -105v-116z" />
    <glyph glyph-name="equal" unicode="=" horiz-adv-x="529" 
d="M48 437h432v-113h-432v113zM48 228h432v-113h-432v113z" />
    <glyph glyph-name="greater" unicode="&#x3e;" horiz-adv-x="529" 
d="M48 169l278 105l-278 106v115l432 -169v-103l-432 -170v116z" />
    <glyph glyph-name="question" unicode="?" horiz-adv-x="451" 
d="M157 244q0 39 7.5 62t33.5 57l55 71q20 26 28 44.5t8 39.5q0 32 -17.5 50.5t-53.5 18.5t-52.5 -19.5t-17.5 -59.5h-121q2 94 52 143t143 49q58 0 102.5 -23t68.5 -63.5t24 -91.5q0 -36 -12 -66.5t-39 -65.5l-58 -78q-16 -21 -21.5 -36.5t-5.5 -40.5v-42h-124v51zM153 126
h131v-126h-131v126z" />
    <glyph glyph-name="at" unicode="@" horiz-adv-x="873" 
d="M233 -88q-89 48 -138.5 134.5t-49.5 199.5v70q0 113 49.5 199.5t138.5 134.5t204 48q113 0 202 -47.5t139 -133.5t50 -196v-70q0 -96 -48 -146.5t-121 -50.5q-45 0 -77 17t-49 48q-32 -65 -128 -65q-151 0 -151 181v88q0 86 35.5 134t108.5 48q36 0 63.5 -14t40.5 -37v40
h109v-285q0 -32 13.5 -47.5t35.5 -15.5q28 0 42 24.5t14 79.5v70q0 85 -33.5 147.5t-96 96.5t-149.5 34q-131 0 -205.5 -75t-74.5 -205v-71q0 -85 33.5 -149t96.5 -99t150 -35q60 0 108 12.5t99 38.5l44 -85q-58 -34 -118 -50t-133 -16q-115 0 -204 48zM500 238v84
q0 89 -66 89q-35 0 -51.5 -23.5t-16.5 -64.5v-82q0 -45 16 -69t52 -24q66 0 66 90z" />
    <glyph glyph-name="A" unicode="A" horiz-adv-x="606" 
d="M421 134h-237l-42 -134h-138l245 690h107l246 -690h-139zM386 243l-84 265l-83 -265h167z" />
    <glyph glyph-name="B" unicode="B" horiz-adv-x="598" 
d="M523.5 294q24.5 -40 24.5 -96q0 -94 -56 -146t-156 -52h-277v690h266q101 0 157.5 -50t56.5 -142q0 -46 -23 -84.5t-64 -58.5q47 -21 71.5 -61zM190 576v-168h125q45 0 68.5 21.5t23.5 60.5q0 42 -23.5 64t-68.5 22h-125zM393.5 138.5q23.5 24.5 23.5 68.5q0 41 -23.5 64
t-70.5 23h-133v-180h133q47 0 70.5 24.5z" />
    <glyph glyph-name="C" unicode="C" 
d="M50 267v158q0 275 253 275q113 0 180 -60t67 -169v-7h-131v6q0 53 -30.5 84t-86.5 31q-63 0 -91.5 -39t-28.5 -128v-149q0 -84 29.5 -122t92.5 -38q56 0 85.5 30t29.5 82v8h129v-7q0 -111 -66 -170.5t-181 -59.5q-251 0 -251 275z" />
    <glyph glyph-name="D" unicode="D" 
d="M59 690h243q115 0 181.5 -64t66.5 -210v-141q0 -146 -68 -210.5t-184 -64.5h-239v690zM301 114q59 0 88.5 39t29.5 123v133q0 88 -29 127.5t-89 39.5h-111v-462h111z" />
    <glyph glyph-name="E" unicode="E" horiz-adv-x="532" 
d="M190 576v-171h262v-114h-262v-177h307v-114h-438v690h438v-114h-307z" />
    <glyph glyph-name="F" unicode="F" horiz-adv-x="527" 
d="M190 576v-177h263v-114h-263v-285h-131v690h438v-114h-307z" />
    <glyph glyph-name="G" unicode="G" 
d="M50 267v158q0 275 253 275q113 0 180 -59.5t67 -164.5v-7h-131v7q0 47 -30.5 78t-86.5 31q-63 0 -91.5 -39t-28.5 -128v-149q0 -85 30.5 -122.5t94.5 -37.5q60 0 87.5 31t27.5 94v33h-122v108h250v-118q0 -265 -249 -265q-251 0 -251 275z" />
    <glyph glyph-name="H" unicode="H" horiz-adv-x="609" 
d="M550 690v-690h-131v292h-229v-292h-131v690h131v-284h229v284h131z" />
    <glyph glyph-name="I" unicode="I" horiz-adv-x="261" 
d="M65 690h131v-690h-131v690z" />
    <glyph glyph-name="J" unicode="J" horiz-adv-x="331" 
d="M24 115h54q31 0 43.5 14.5t12.5 50.5v510h132v-532q0 -76 -41.5 -117t-116.5 -41h-84v115z" />
    <glyph glyph-name="K" unicode="K" horiz-adv-x="610" 
d="M281 307l-91 -114v-193h-131v690h131v-322l239 322h157l-221 -277l239 -413h-152z" />
    <glyph glyph-name="L" unicode="L" horiz-adv-x="516" 
d="M59 690h131v-576h302v-114h-433v690z" />
    <glyph glyph-name="M" unicode="M" horiz-adv-x="732" 
d="M673 690v-690h-131v409l-131 -276h-88l-133 279v-412h-131v690h131l177 -381l175 381h131z" />
    <glyph glyph-name="N" unicode="N" horiz-adv-x="634" 
d="M575 690v-690h-131l-254 431v-431h-131v690h131l254 -432v432h131z" />
    <glyph glyph-name="O" unicode="O" 
d="M50 267v158q0 275 251 275q115 0 182 -64.5t67 -210.5v-158q0 -146 -68.5 -210.5t-184.5 -64.5q-247 0 -247 275zM390 147.5q29 38.5 29 121.5v149q0 88 -29 127.5t-89 39.5q-63 0 -91 -38.5t-28 -128.5v-149q0 -85 28 -122.5t91 -37.5q60 0 89 38.5z" />
    <glyph glyph-name="P" unicode="P" horiz-adv-x="567" 
d="M482.5 632q60.5 -58 60.5 -159q0 -96 -60.5 -153.5t-165.5 -57.5h-127v-262h-131v690h258q105 0 165.5 -58zM385 402q27 25 27 71q0 50 -26.5 76.5t-74.5 26.5h-121v-199h121q47 0 74 25z" />
    <glyph glyph-name="Q" unicode="Q" 
d="M456 35l73 -134l-100 -55l-81 149q-24 -3 -51 -3q-247 0 -247 275v158q0 275 251 275q115 0 182 -64.5t67 -210.5v-158q0 -166 -94 -232zM210 146.5q28 -37.5 91 -37.5q60 0 89 38.5t29 121.5v149q0 88 -29 127.5t-89 39.5q-63 0 -91 -38.5t-28 -128.5v-149
q0 -85 28 -122.5z" />
    <glyph glyph-name="R" unicode="R" 
d="M288 280h-98v-280h-131v690h262q101 0 161 -55.5t60 -150.5q0 -68 -31.5 -115t-90.5 -69l150 -300h-151zM190 389h124q46 0 71.5 24.5t25.5 70.5q0 42 -26 67t-71 25h-124v-187z" />
    <glyph glyph-name="S" unicode="S" horiz-adv-x="548" 
d="M94 49.5q-62 55.5 -69 160.5h124q7 -57 36.5 -80.5t87.5 -23.5q111 0 111 91q0 41 -22 62.5t-70 29.5l-65 11q-187 31 -187 192q0 96 63.5 152t168.5 56q102 0 161.5 -54t67.5 -152h-126q-3 50 -29 73t-76 23q-51 0 -77 -23.5t-26 -64.5q0 -36 23 -57t72 -30l73 -13
q178 -32 178 -194q0 -104 -66.5 -159t-179.5 -55q-111 0 -173 55.5z" />
    <glyph glyph-name="T" unicode="T" horiz-adv-x="496" 
d="M490 576h-176v-576h-132v576h-176v114h484v-114z" />
    <glyph glyph-name="U" unicode="U" horiz-adv-x="614" 
d="M179.5 23.5q-56.5 29.5 -88.5 83t-32 121.5v462h131v-458q0 -59 31 -91.5t85 -32.5t85.5 32.5t31.5 91.5v458h132v-462q0 -68 -32.5 -121.5t-89 -83t-127.5 -29.5q-70 0 -126.5 29.5z" />
    <glyph glyph-name="V" unicode="V" horiz-adv-x="554" 
d="M4 690h137l136 -477l136 477h137l-221 -690h-105z" />
    <glyph glyph-name="W" unicode="W" horiz-adv-x="833" 
d="M829 690l-165 -690h-120l-126 511l-125 -511h-119l-170 690h131l104 -487l101 487h163l106 -487l98 487h122z" />
    <glyph glyph-name="X" unicode="X" horiz-adv-x="593" 
d="M219 359l-199 331h155l122 -224l120 224h149l-195 -326l218 -364h-156l-139 255l-141 -255h-149z" />
    <glyph glyph-name="Y" unicode="Y" horiz-adv-x="541" 
d="M336 284v-284h-131v283l-201 407h143l123 -280l123 280h144z" />
    <glyph glyph-name="Z" unicode="Z" horiz-adv-x="505" 
d="M478 115v-115h-448v115l297 461h-291v114h433v-114l-296 -461h305z" />
    <glyph glyph-name="bracketleft" unicode="[" horiz-adv-x="315" 
d="M59 741h211v-115h-87v-595h87v-115h-211v825z" />
    <glyph glyph-name="backslash" unicode="\" horiz-adv-x="405" 
d="M45 695h103l212 -705h-103z" />
    <glyph glyph-name="bracketright" unicode="]" horiz-adv-x="316" 
d="M45 31h88v592h-88v114h212v-821h-212v115z" />
    <glyph glyph-name="asciicircum" unicode="^" horiz-adv-x="529" 
d="M212 695h104l170 -424h-103l-119 304l-119 -304h-103z" />
    <glyph glyph-name="underscore" unicode="_" horiz-adv-x="500" 
d="M0 -40h500v-81h-500v81z" />
    <glyph glyph-name="grave" unicode="`" horiz-adv-x="500" 
d="M127 721h137l108 -133h-107z" />
    <glyph glyph-name="a" unicode="a" horiz-adv-x="501" 
d="M394 479.5q53 -46.5 53 -137.5v-342h-120v45q-26 -27 -53.5 -39t-69.5 -12q-80 0 -124 43t-44 119q0 70 47 110.5t131 40.5h110v41q0 83 -83 83q-35 0 -55.5 -17.5t-20.5 -46.5v-3h-115v4q0 73 52 115.5t140 42.5q99 0 152 -46.5zM302.5 116.5q21.5 22.5 21.5 68.5v37
h-90q-78 0 -78 -63q0 -65 76 -65q49 0 70.5 22.5z" />
    <glyph glyph-name="b" unicode="b" horiz-adv-x="515" 
d="M175 48v-48h-121v690h124v-223q43 59 116 59q78 0 127 -53t49 -161v-103q0 -108 -49 -161.5t-123 -53.5q-79 0 -123 54zM346 213v94q0 58 -22.5 83.5t-60.5 25.5q-40 0 -63 -28t-23 -81v-94q0 -53 23.5 -81t65.5 -28q80 0 80 109z" />
    <glyph glyph-name="c" unicode="c" horiz-adv-x="505" 
d="M101.5 47q-56.5 53 -56.5 165v97q0 111 56.5 164t154.5 53q96 0 150 -49t54 -136v-10h-118v6q0 37 -22.5 58t-61.5 21q-90 0 -90 -109v-94q0 -59 23.5 -84t66.5 -25q39 0 61.5 20t22.5 56v6h118v-7q0 -86 -54 -135.5t-150 -49.5q-98 0 -154.5 53z" />
    <glyph glyph-name="d" unicode="d" horiz-adv-x="514" 
d="M93.5 47.5q-48.5 53.5 -48.5 161.5v103q0 108 47.5 161t123.5 53q78 0 121 -59v223h123v-690h-121v48q-43 -54 -122 -54q-75 0 -123.5 53.5zM314 132q23 28 23 81v94q0 53 -22.5 81t-62.5 28q-83 0 -83 -109v-94q0 -109 80 -109q42 0 65 28z" />
    <glyph glyph-name="e" unicode="e" horiz-adv-x="517" 
d="M168 223v-14q0 -58 26 -83t74 -25q37 0 58 15.5t23 43.5l1 3h118v-5q0 -74 -55 -119t-150 -45q-100 0 -159 57.5t-59 177.5v63q0 117 57 175.5t157 58.5q98 0 155.5 -59t57.5 -175v-69h-304zM191.5 395q-23.5 -25 -23.5 -84v-3h180v13q0 99 -89 99q-44 0 -67.5 -25z" />
    <glyph glyph-name="f" unicode="f" horiz-adv-x="334" 
d="M226.5 593.5q-12.5 -12.5 -12.5 -37.5v-36h93v-87h-93v-433h-123v433h-55v87h55v31q0 66 37.5 102.5t106.5 36.5h72v-84h-41q-27 0 -39.5 -12.5z" />
    <glyph glyph-name="g" unicode="g" horiz-adv-x="514" 
d="M107.5 -124q-50.5 40 -55.5 111h119q5 -24 26.5 -38.5t56.5 -14.5q85 0 85 96v64q-43 -54 -122 -54q-75 0 -123.5 53.5t-48.5 161.5v57q0 108 47.5 161t123.5 53q78 0 121 -59v53h123v-482q0 -93 -56 -147.5t-155 -54.5q-91 0 -141.5 40zM314 178q23 28 23 81v48
q0 53 -22.5 81t-62.5 28q-83 0 -83 -109v-48q0 -109 80 -109q42 0 65 28z" />
    <glyph glyph-name="h" unicode="h" horiz-adv-x="520" 
d="M54 690h124v-216q23 26 54 39t66 13q80 0 124 -49.5t44 -137.5v-339h-124v324q0 45 -22 68.5t-59 23.5q-36 0 -59.5 -24t-23.5 -68v-324h-124v690z" />
    <glyph glyph-name="i" unicode="i" horiz-adv-x="241" 
d="M59 520h123v-520h-123v520zM57 690h126v-99h-126v99z" />
    <glyph glyph-name="j" unicode="j" horiz-adv-x="241" 
d="M56 690h126v-99h-126v99zM-33 -49h42q26 0 38 14t12 45v510h123v-518q0 -76 -41 -117t-116 -41h-58v107z" />
    <glyph glyph-name="k" unicode="k" horiz-adv-x="520" 
d="M233 218l-55 -64v-154h-124v690h124v-386l168 216h147l-178 -207l191 -313h-150z" />
    <glyph glyph-name="l" unicode="l" horiz-adv-x="287" 
d="M95.5 41q-41.5 41 -41.5 117v532h124v-524q0 -32 11.5 -45.5t37.5 -13.5h42v-107h-57q-75 0 -116.5 41z" />
    <glyph glyph-name="m" unicode="m" horiz-adv-x="808" 
d="M54 520h121v-47q23 25 55.5 39t67.5 14q87 0 133 -65q60 65 147 65q83 0 129.5 -50t46.5 -137v-339h-124v324q0 45 -22.5 68.5t-58.5 23.5q-38 0 -60.5 -24.5t-22.5 -64.5v-327h-124v324q0 45 -22.5 68.5t-58.5 23.5q-37 0 -60 -24t-23 -68v-324h-124v520z" />
    <glyph glyph-name="n" unicode="n" horiz-adv-x="520" 
d="M54 520h121v-47q23 26 55.5 39.5t67.5 13.5q80 0 124 -50t44 -137v-339h-124v324q0 44 -22 68t-59 24q-36 0 -59.5 -24t-23.5 -68v-324h-124v520z" />
    <glyph glyph-name="o" unicode="o" horiz-adv-x="510" 
d="M101.5 47q-56.5 53 -56.5 165v97q0 111 56.5 164t154.5 53q97 0 153 -53t56 -164v-97q0 -112 -56 -165t-153 -53q-98 0 -154.5 53zM342 213v94q0 109 -86 109q-88 0 -88 -109v-94q0 -109 88 -109q86 0 86 109z" />
    <glyph glyph-name="p" unicode="p" horiz-adv-x="515" 
d="M54 520h121v-53q46 59 119 59q78 0 127 -53t49 -161v-103q0 -108 -49 -161.5t-123 -53.5q-77 0 -120 53v-203h-124v676zM346 213v94q0 58 -22.5 83.5t-60.5 25.5q-40 0 -63 -28t-23 -81v-94q0 -53 23.5 -81t65.5 -28q80 0 80 109z" />
    <glyph glyph-name="q" unicode="q" horiz-adv-x="514" 
d="M337 47q-43 -53 -120 -53q-75 0 -123.5 53.5t-48.5 161.5v103q0 108 48.5 161t126.5 53q75 0 119 -59v53h121v-676h-123v203zM314 132q23 28 23 81v94q0 53 -22.5 81t-62.5 28q-83 0 -83 -109v-94q0 -109 80 -109q42 0 65 28z" />
    <glyph glyph-name="r" unicode="r" horiz-adv-x="358" 
d="M54 520h121v-54q19 33 51 49t72 16q23 0 42 -4v-116q-35 11 -62 11q-45 0 -72.5 -28.5t-27.5 -81.5v-312h-124v520z" />
    <glyph glyph-name="s" unicode="s" horiz-adv-x="474" 
d="M90 37.5q-54 43.5 -54 116.5v4h116v-2q0 -29 23.5 -45.5t61.5 -16.5q41 0 64 14.5t23 43.5q0 24 -17 37t-57 19l-55 9q-78 13 -115 48t-37 100q0 74 54.5 117.5t139.5 43.5q58 0 102.5 -19.5t69 -54t24.5 -77.5v-6h-115v3q0 27 -21.5 42t-59.5 15t-58 -15t-20 -40
q0 -23 15.5 -36t50.5 -18l61 -9q78 -11 117 -48t39 -102q0 -80 -58 -123.5t-151 -43.5q-89 0 -143 43.5z" />
    <glyph glyph-name="t" unicode="t" horiz-adv-x="352" 
d="M220 433v-275q0 -53 51 -53h39v-105h-59q-71 0 -112.5 40.5t-41.5 109.5v283h-72v87h72v102l123 43v-145h100v-87h-100z" />
    <glyph glyph-name="u" unicode="u" horiz-adv-x="520" 
d="M54 210v310h124v-304q0 -55 16.5 -83.5t65.5 -28.5t65.5 27t16.5 85v304h124v-310q0 -108 -51 -162t-155 -54q-206 0 -206 216z" />
    <glyph glyph-name="v" unicode="v" horiz-adv-x="481" 
d="M9 520h131l101 -330l100 330h131l-181 -520h-102z" />
    <glyph glyph-name="w" unicode="w" horiz-adv-x="736" 
d="M9 520h131l81 -330l100 330h93l100 -330l81 330h132l-153 -520h-105l-102 337l-101 -337h-105z" />
    <glyph glyph-name="x" unicode="x" horiz-adv-x="459" 
d="M321 0l-96 164l-86 -164h-130l156 268l-147 252h130l86 -148l77 148h130l-149 -248l158 -272h-129z" />
    <glyph glyph-name="y" unicode="y" horiz-adv-x="482" 
d="M473 520l-197 -565q-20 -57 -57.5 -83t-99.5 -26h-43v111h39q30 0 44.5 10.5t23.5 39.5l2 7l-176 506h131l102 -327l104 327h127z" />
    <glyph glyph-name="z" unicode="z" horiz-adv-x="455" 
d="M410 416l-230 -312h230v-104h-365v104l230 312h-230v104h365v-104z" />
    <glyph glyph-name="braceleft" unicode="{" horiz-adv-x="360" 
d="M153 -52.5q-32 31.5 -32 91.5v158q0 42 -17 61t-59 19v106q42 0 59 19t17 61v155q0 59 32 90.5t92 31.5h70v-100h-35q-42 0 -42 -44v-139q0 -57 -15.5 -85.5t-55.5 -41.5q40 -14 55.5 -42t15.5 -85v-143q0 -44 42 -44h35v-100h-70q-60 0 -92 31.5z" />
    <glyph glyph-name="bar" unicode="|" horiz-adv-x="295" 
d="M90 740h115v-824h-115v824z" />
    <glyph glyph-name="braceright" unicode="}" horiz-adv-x="360" 
d="M45 16h35q43 0 43 44v143q0 57 15.5 85t55.5 42q-40 13 -55.5 41.5t-15.5 85.5v139q0 44 -43 44h-35v100h71q60 0 91.5 -31.5t31.5 -90.5v-155q0 -42 17.5 -61t58.5 -19v-106q-41 0 -58.5 -19t-17.5 -61v-158q0 -60 -31.5 -91.5t-91.5 -31.5h-71v100z" />
    <glyph glyph-name="asciitilde" unicode="~" horiz-adv-x="529" 
d="M299.5 203.5q-21.5 8.5 -48.5 24.5q-24 13 -37 18.5t-27 5.5q-21 0 -36.5 -13t-31.5 -43l-80 49q24 53 61 81t82 28q26 0 47 -8t49 -24q22 -12 36 -18t29 -6q22 0 37.5 13t30.5 43l80 -49q-23 -53 -60.5 -81.5t-83.5 -28.5q-26 0 -47.5 8.5z" />
    <glyph glyph-name="uni00A0" unicode="&#xa0;" horiz-adv-x="229" 
 />
    <glyph glyph-name="exclamdown" unicode="&#xa1;" horiz-adv-x="249" 
d="M58 520h133v-131h-133v131zM78 290h93l24 -446h-141z" />
    <glyph glyph-name="cent" unicode="&#xa2;" horiz-adv-x="547" 
d="M342 331v6q0 37 -22.5 58t-61.5 21q-90 0 -90 -109v-94q0 -59 23.5 -84t66.5 -25q39 0 61.5 20t22.5 56v6h118v-7q0 -73 -40 -120.5t-112 -60.5v-98h-59v94q-95 2 -149.5 55t-54.5 163v97q0 109 54.5 162t149.5 55v109h59v-113q73 -13 112.5 -60t39.5 -121v-10h-118z" />
    <glyph glyph-name="sterling" unicode="&#xa3;" horiz-adv-x="466" 
d="M187 113h254v-113h-398v108q24 11 34 32t10 61v75h-62v114h62v122q0 90 47 139t134 49q80 0 126.5 -43t46.5 -123h-122q0 26 -13 40.5t-36 14.5q-25 0 -38.5 -16.5t-13.5 -45.5v-137h130v-114h-130v-62q0 -67 -31 -101z" />
    <glyph glyph-name="currency" unicode="&#xa4;" horiz-adv-x="595" 
d="M402 140q-47 -28 -105 -28t-105 28l-65 -65l-73 73l66 66q-26 44 -26 102q0 54 27 102l-67 67l73 73l66 -66q48 27 104 27t104 -27l67 66l72 -73l-66 -67q27 -48 27 -102q0 -57 -26 -103l66 -66l-73 -73zM371 240.5q29 30.5 29 75.5t-29 75t-74 30q-44 0 -73 -30t-29 -75
t29 -75.5t73 -30.5q45 0 74 30.5z" />
    <glyph glyph-name="yen" unicode="&#xa5;" horiz-adv-x="497" 
d="M183 117h-129v88h129v55h-129v88h108l-155 342h135l109 -277l105 277h134l-155 -342h108v-88h-129v-55h129v-88h-129v-117h-131v117z" />
    <glyph glyph-name="brokenbar" unicode="&#xa6;" horiz-adv-x="295" 
d="M90 740h115v-352h-115v352zM90 270h115v-354h-115v354z" />
    <glyph glyph-name="section" unicode="&#xa7;" horiz-adv-x="511" 
d="M119 -123q-46 45 -46 127h113q0 -70 64 -70q31 0 47 16t16 43q0 36 -22.5 56t-84.5 37q-75 21 -111 67.5t-36 121.5q0 52 23 92t64 62q-35 20 -50 52t-15 75q0 45 22 81.5t62 57.5t93 21q87 0 131.5 -46t44.5 -125h-112q0 69 -62 69q-28 0 -44 -16t-16 -43
q0 -35 22.5 -53.5t82.5 -35.5q75 -21 111 -67.5t36 -121.5q0 -52 -24 -93t-64 -60q38 -22 53 -53.5t15 -80.5q0 -69 -49 -113.5t-131 -44.5q-87 0 -133 45zM312 211.5q20 23.5 20 64.5t-20 64.5t-56 23.5q-37 0 -57.5 -23t-20.5 -65t20.5 -65t57.5 -23q36 0 56 23.5z
M158 707z" />
    <glyph glyph-name="dieresis" unicode="&#xa8;" horiz-adv-x="500" 
d="M100 703h107v-116h-107v116zM292 703h107v-116h-107v116z" />
    <glyph glyph-name="copyright" unicode="&#xa9;" horiz-adv-x="784" 
d="M211.5 35q-77.5 44 -119.5 123.5t-42 183.5q0 105 42 184.5t119.5 123t180.5 43.5t180.5 -44t119.5 -123.5t42 -183.5t-42 -183.5t-119.5 -123.5t-180.5 -44t-180.5 44zM583.5 141.5q69.5 73.5 69.5 200.5t-69.5 201t-191.5 74t-191.5 -74t-69.5 -201t69.5 -200.5
t191.5 -73.5t191.5 73.5zM282 186.5q-41 38.5 -41 120.5v70q0 81 41 120t112 39q70 0 109.5 -36t39.5 -99v-7h-86v4q0 27 -16.5 42.5t-44.5 15.5q-66 0 -66 -80v-68q0 -44 17 -62t49 -18q29 0 45 14.5t16 41.5v4h86v-5q0 -62 -40 -98.5t-109 -36.5q-71 0 -112 38.5z" />
    <glyph glyph-name="ordfeminine" unicode="&#xaa;" horiz-adv-x="353" 
d="M266 719.5q34 -28.5 34 -85.5v-204h-86v25q-17 -16 -33 -22.5t-40 -6.5q-49 0 -77 27.5t-28 73.5q0 42 30 67t83 25h62v20q0 41 -44 41q-18 0 -28.5 -8.5t-10.5 -22.5v-2h-83v2q0 47 33 73t90 26q64 0 98 -28.5zM199.5 510q11.5 11 11.5 34v15h-48q-41 0 -41 -29
q0 -14 10 -22.5t30 -8.5q26 0 37.5 11zM166 847z" />
    <glyph glyph-name="guillemotleft" unicode="&#xab;" horiz-adv-x="525" 
d="M18 264l226 227v-131l-95 -96l95 -96v-131zM244 264l227 227v-131l-96 -96l96 -96v-131z" />
    <glyph glyph-name="logicalnot" unicode="&#xac;" horiz-adv-x="529" 
d="M355 254h-305v111h428v-245h-123v134z" />
    <glyph glyph-name="uni00AD" unicode="&#xad;" horiz-adv-x="365" 
d="M45 403h275v-115h-275v115z" />
    <glyph glyph-name="registered" unicode="&#xae;" horiz-adv-x="495" 
d="M150.5 333q-42.5 25 -67 69t-24.5 98t24.5 97.5t67.5 68.5t96 25q54 0 97 -25t67.5 -69t24.5 -97q0 -54 -24.5 -98t-67.5 -69t-97 -25t-96.5 25zM352.5 390.5q40.5 42.5 40.5 109.5t-41 109t-105 42t-105 -42t-41 -109t41 -109.5t105 -42.5q65 0 105.5 42.5zM170 607h88
q37 0 57 -17t20 -49q0 -42 -37 -60l42 -86h-56l-37 78h-25v-78h-52v212zM255 517q28 0 28 23t-28 23h-33v-46h33z" />
    <glyph glyph-name="macron" unicode="&#xaf;" horiz-adv-x="500" 
d="M109 700h282v-110h-282v110z" />
    <glyph glyph-name="degree" unicode="&#xb0;" horiz-adv-x="394" 
d="M92 449q-42 42 -42 105q0 41 19 74.5t53 53t75 19.5t74.5 -19.5t53 -53t19.5 -74.5t-19.5 -75t-53 -53t-74.5 -19q-63 0 -105 42zM246.5 502.5q19.5 20.5 19.5 51.5t-19.5 51.5t-49.5 20.5q-31 0 -50 -20t-19 -52t19 -52t50 -20q30 0 49.5 20.5z" />
    <glyph glyph-name="plusminus" unicode="&#xb1;" horiz-adv-x="529" 
d="M208 281h-160v114h160v160h114v-160h159v-114h-159v-160h-114v160zM48 78h433v-114h-433v114z" />
    <glyph glyph-name="uni00B2" unicode="&#xb2;" horiz-adv-x="346" 
d="M44 510l137 171q20 25 20 47v7q0 16 -8 25.5t-23 9.5q-14 0 -22 -10t-8 -27v-9h-99v15q0 52 36 84.5t98 32.5q59 0 95 -34t36 -82v-11q0 -28 -10 -50.5t-30 -46.5l-92 -113h132v-89h-262v80z" />
    <glyph glyph-name="uni00B3" unicode="&#xb3;" horiz-adv-x="341" 
d="M71.5 452q-34.5 29 -34.5 84v15h93v-10q0 -33 37 -33q16 0 25.5 10.5t9.5 29.5v9q0 45 -43 45h-21v85h20q18 0 27.5 10t9.5 28v8q0 37 -31 37q-33 0 -33 -31v-11h-92v10q0 56 34 87t95 31q59 0 92.5 -31t33.5 -83v-9q0 -54 -46 -80q26 -10 39.5 -35t13.5 -59v-11
q0 -57 -37 -91t-94 -34q-64 0 -98.5 29z" />
    <glyph glyph-name="acute" unicode="&#xb4;" horiz-adv-x="500" 
d="M235 721h137l-138 -133h-107z" />
    <glyph glyph-name="uni00B5" unicode="&#xb5;" horiz-adv-x="520" 
d="M54 520h124v-324q0 -44 22 -68t59 -24q36 0 59.5 24t23.5 68v324h124v-520h-121v47q-39 -53 -104 -53q-35 0 -64 16v-166h-123v676z" />
    <glyph glyph-name="paragraph" unicode="&#xb6;" horiz-adv-x="644" 
d="M256 253q-58 4 -102.5 33t-69.5 77.5t-25 108.5q0 61 27.5 111t78.5 78.5t121 28.5h269v-846h-107v746h-82v-746h-110v409z" />
    <glyph glyph-name="periodcentered" unicode="&#xb7;" horiz-adv-x="215" 
d="M38 350h139v-142h-139v142z" />
    <glyph glyph-name="cedilla" unicode="&#xb8;" horiz-adv-x="500" 
d="M225 13h98l-53 -169h-114z" />
    <glyph glyph-name="uni00B9" unicode="&#xb9;" horiz-adv-x="253" 
d="M97 737l-68 -48v110l69 50h102v-419h-103v307z" />
    <glyph glyph-name="ordmasculine" unicode="&#xba;" horiz-adv-x="355" 
d="M79 459q-36 33 -36 100v57q0 67 36 99.5t99 32.5t98.5 -32.5t35.5 -99.5v-57q0 -67 -35.5 -100t-98.5 -33t-99 33zM222 559v56q0 53 -45 53t-45 -53v-56q0 -53 45 -53t45 53zM166 847z" />
    <glyph glyph-name="guillemotright" unicode="&#xbb;" horiz-adv-x="525" 
d="M54 168l96 96l-96 96v131l227 -227l-227 -227v131zM281 168l95 96l-95 96v131l226 -227l-226 -227v131z" />
    <glyph glyph-name="onequarter" unicode="&#xbc;" horiz-adv-x="804" 
d="M97 578l-68 -48v110l69 50h102v-419h-103v307zM779 57h-27v-57h-103v57h-162v89l115 273h103l-115 -273h59v88h103v-88h27v-89zM498 695h99l-386 -695h-98z" />
    <glyph glyph-name="onehalf" unicode="&#xbd;" horiz-adv-x="803" 
d="M97 578l-68 -48v110l69 50h102v-419h-103v307zM501 80l137 171q20 25 20 47v7q0 16 -8 25.5t-23 9.5q-14 0 -22 -10t-8 -27v-9h-99v15q0 52 36 84.5t98 32.5q59 0 95 -34t36 -82v-11q0 -28 -10 -50.5t-30 -46.5l-92 -113h132v-89h-262v80zM498 695h99l-386 -695h-98z" />
    <glyph glyph-name="threequarters" unicode="&#xbe;" horiz-adv-x="892" 
d="M71.5 293q-34.5 29 -34.5 84v15h93v-10q0 -33 37 -33q16 0 25.5 10.5t9.5 29.5v9q0 45 -43 45h-21v85h20q18 0 27.5 10t9.5 28v8q0 37 -31 37q-33 0 -33 -31v-11h-92v10q0 56 34 87t95 31q59 0 92.5 -31t33.5 -83v-9q0 -54 -46 -80q26 -10 39.5 -35t13.5 -59v-11
q0 -57 -37 -91t-94 -34q-64 0 -98.5 29zM867 57h-27v-57h-103v57h-162v89l115 273h103l-115 -273h59v88h103v-88h27v-89zM586 695h99l-386 -695h-98z" />
    <glyph glyph-name="questiondown" unicode="&#xbf;" horiz-adv-x="451" 
d="M167 520h130v-130h-130v130zM126.5 -143.5q-44.5 22.5 -68.5 62.5t-24 90q0 41 12.5 73t43.5 68l44 51q23 27 29.5 45t6.5 48v29h124v-38q0 -43 -8.5 -68t-40.5 -62l-47 -55q-20 -24 -28 -43t-8 -41q0 -32 18 -51t53 -19q36 0 52.5 20t17.5 60h121q-2 -94 -52 -143
t-143 -49q-58 0 -102.5 22.5z" />
    <glyph glyph-name="Agrave" unicode="&#xc0;" horiz-adv-x="606" 
d="M421 134h-237l-42 -134h-138l245 690h107l246 -690h-139zM386 243l-84 265l-83 -265h167zM144 891h137l108 -133h-107z" />
    <glyph glyph-name="Aacute" unicode="&#xc1;" horiz-adv-x="606" 
d="M421 134h-237l-42 -134h-138l245 690h107l246 -690h-139zM386 243l-84 265l-83 -265h167zM318 891h137l-138 -133h-107z" />
    <glyph glyph-name="Acircumflex" unicode="&#xc2;" horiz-adv-x="606" 
d="M421 134h-237l-42 -134h-138l245 690h107l246 -690h-139zM386 243l-84 265l-83 -265h167zM257 898h91l115 -151h-97l-63 78l-63 -78h-98z" />
    <glyph glyph-name="Atilde" unicode="&#xc3;" horiz-adv-x="606" 
d="M421 134h-237l-42 -134h-138l245 690h107l246 -690h-139zM386 243l-84 265l-83 -265h167zM161 842q23 23 40.5 33t40.5 10q20 0 35 -5t36 -16q32 -17 55 -17q20 0 35 8t41 32v-91q-23 -23 -40.5 -33t-40.5 -10q-19 0 -34 5t-36 16q-32 17 -55 17q-20 0 -35 -8t-42 -31v90
z" />
    <glyph glyph-name="Adieresis" unicode="&#xc4;" horiz-adv-x="606" 
d="M421 134h-237l-42 -134h-138l245 690h107l246 -690h-139zM386 243l-84 265l-83 -265h167zM153 873h107v-116h-107v116zM345 873h107v-116h-107v116z" />
    <glyph glyph-name="Aring" unicode="&#xc5;" horiz-adv-x="606" 
d="M421 134h-237l-42 -134h-138l245 690q-22 14 -35 37t-13 51q0 45 29.5 74.5t73.5 29.5t73.5 -29.5t29.5 -74.5q0 -29 -13.5 -52.5t-36.5 -37.5l245 -688h-139zM271 813q-13 -14 -13 -35q0 -20 13.5 -34t32.5 -14q20 0 33.5 14t13.5 34q0 21 -13.5 35t-33.5 14t-33 -14z
M386 243l-84 265l-83 -265h167zM303 675z" />
    <glyph glyph-name="AE" unicode="&#xc6;" horiz-adv-x="883" 
d="M551 576v-171h252v-114h-252v-177h297v-114h-429v141h-210l-67 -141h-138l340 690h504v-114h-297zM419 250v329l-157 -329h157z" />
    <glyph glyph-name="Ccedilla" unicode="&#xc7;" 
d="M419 464v6q0 53 -30.5 84t-86.5 31q-63 0 -91.5 -39t-28.5 -128v-149q0 -84 29.5 -122t92.5 -38q56 0 85.5 30t29.5 82v8h129v-7q0 -94 -47 -151t-132 -73l-48 -154h-114l61 149q-218 19 -218 274v158q0 275 253 275q113 0 180 -60t67 -169v-7h-131z" />
    <glyph glyph-name="Egrave" unicode="&#xc8;" horiz-adv-x="532" 
d="M190 576v-171h262v-114h-262v-177h307v-114h-438v690h438v-114h-307zM109 891h137l108 -133h-107z" />
    <glyph glyph-name="Eacute" unicode="&#xc9;" horiz-adv-x="532" 
d="M190 576v-171h262v-114h-262v-177h307v-114h-438v690h438v-114h-307zM283 891h137l-138 -133h-107z" />
    <glyph glyph-name="Ecircumflex" unicode="&#xca;" horiz-adv-x="532" 
d="M190 576v-171h262v-114h-262v-177h307v-114h-438v690h438v-114h-307zM222 898h91l115 -151h-97l-63 78l-63 -78h-98z" />
    <glyph glyph-name="Edieresis" unicode="&#xcb;" horiz-adv-x="532" 
d="M190 576v-171h262v-114h-262v-177h307v-114h-438v690h438v-114h-307zM118 873h107v-116h-107v116zM310 873h107v-116h-107v116z" />
    <glyph glyph-name="Igrave" unicode="&#xcc;" horiz-adv-x="261" 
d="M65 690h131v-690h-131v690zM-29 891h137l108 -133h-107z" />
    <glyph glyph-name="Iacute" unicode="&#xcd;" horiz-adv-x="261" 
d="M65 690h131v-690h-131v690zM145 891h137l-138 -133h-107z" />
    <glyph glyph-name="Icircumflex" unicode="&#xce;" horiz-adv-x="261" 
d="M65 690h131v-690h-131v690zM84 898h91l115 -151h-97l-63 78l-63 -78h-98z" />
    <glyph glyph-name="Idieresis" unicode="&#xcf;" horiz-adv-x="261" 
d="M65 690h131v-690h-131v690zM-20 873h107v-116h-107v116zM172 873h107v-116h-107v116z" />
    <glyph glyph-name="Eth" unicode="&#xd0;" horiz-adv-x="632" 
d="M515.5 626q66.5 -64 66.5 -210v-141q0 -146 -68 -210.5t-184 -64.5h-239v294h-64v115h64v281h243q115 0 181.5 -64zM451 409q0 88 -29 127.5t-89 39.5h-111v-167h118v-115h-118v-180h111q59 0 88.5 39t29.5 123v133z" />
    <glyph glyph-name="Ntilde" unicode="&#xd1;" horiz-adv-x="634" 
d="M575 690v-690h-131l-254 431v-431h-131v690h131l254 -432v432h131zM175 842q23 23 40.5 33t40.5 10q20 0 35 -5t36 -16q32 -17 55 -17q20 0 35 8t41 32v-91q-23 -23 -40.5 -33t-40.5 -10q-19 0 -34 5t-36 16q-32 17 -55 17q-20 0 -35 -8t-42 -31v90z" />
    <glyph glyph-name="Ograve" unicode="&#xd2;" 
d="M50 267v158q0 275 251 275q115 0 182 -64.5t67 -210.5v-158q0 -146 -68.5 -210.5t-184.5 -64.5q-247 0 -247 275zM390 147.5q29 38.5 29 121.5v149q0 88 -29 127.5t-89 39.5q-63 0 -91 -38.5t-28 -128.5v-149q0 -85 28 -122.5t91 -37.5q60 0 89 38.5zM141 891h137
l108 -133h-107z" />
    <glyph glyph-name="Oacute" unicode="&#xd3;" 
d="M50 267v158q0 275 251 275q115 0 182 -64.5t67 -210.5v-158q0 -146 -68.5 -210.5t-184.5 -64.5q-247 0 -247 275zM390 147.5q29 38.5 29 121.5v149q0 88 -29 127.5t-89 39.5q-63 0 -91 -38.5t-28 -128.5v-149q0 -85 28 -122.5t91 -37.5q60 0 89 38.5zM315 891h137
l-138 -133h-107z" />
    <glyph glyph-name="Ocircumflex" unicode="&#xd4;" 
d="M50 267v158q0 275 251 275q115 0 182 -64.5t67 -210.5v-158q0 -146 -68.5 -210.5t-184.5 -64.5q-247 0 -247 275zM390 147.5q29 38.5 29 121.5v149q0 88 -29 127.5t-89 39.5q-63 0 -91 -38.5t-28 -128.5v-149q0 -85 28 -122.5t91 -37.5q60 0 89 38.5zM254 898h91
l115 -151h-97l-63 78l-63 -78h-98z" />
    <glyph glyph-name="Otilde" unicode="&#xd5;" 
d="M50 267v158q0 275 251 275q115 0 182 -64.5t67 -210.5v-158q0 -146 -68.5 -210.5t-184.5 -64.5q-247 0 -247 275zM390 147.5q29 38.5 29 121.5v149q0 88 -29 127.5t-89 39.5q-63 0 -91 -38.5t-28 -128.5v-149q0 -85 28 -122.5t91 -37.5q60 0 89 38.5zM158 842
q23 23 40.5 33t40.5 10q20 0 35 -5t36 -16q32 -17 55 -17q20 0 35 8t41 32v-91q-23 -23 -40.5 -33t-40.5 -10q-19 0 -34 5t-36 16q-32 17 -55 17q-20 0 -35 -8t-42 -31v90z" />
    <glyph glyph-name="Odieresis" unicode="&#xd6;" 
d="M50 267v158q0 275 251 275q115 0 182 -64.5t67 -210.5v-158q0 -146 -68.5 -210.5t-184.5 -64.5q-247 0 -247 275zM390 147.5q29 38.5 29 121.5v149q0 88 -29 127.5t-89 39.5q-63 0 -91 -38.5t-28 -128.5v-149q0 -85 28 -122.5t91 -37.5q60 0 89 38.5zM150 873h107v-116
h-107v116zM342 873h107v-116h-107v116z" />
    <glyph glyph-name="multiply" unicode="&#xd7;" horiz-adv-x="529" 
d="M69 157l119 119l-119 120l76 76l120 -119l119 119l76 -77l-119 -119l119 -119l-76 -77l-119 120l-120 -120z" />
    <glyph glyph-name="Oslash" unicode="&#xd8;" 
d="M495 621q55 -68 55 -196v-158q0 -146 -68.5 -210.5t-184.5 -64.5q-89 0 -147 36l-28 -48h-72l53 91q-53 67 -53 196v158q0 275 251 275q90 0 148 -37l30 52h71zM186 213l198 340q-28 32 -83 32q-63 0 -91 -38.5t-28 -128.5v-149q0 -35 4 -56zM414 482l-199 -342
q30 -31 86 -31q60 0 89 38.5t29 121.5v149q0 32 -5 64z" />
    <glyph glyph-name="Ugrave" unicode="&#xd9;" horiz-adv-x="614" 
d="M179.5 23.5q-56.5 29.5 -88.5 83t-32 121.5v462h131v-458q0 -59 31 -91.5t85 -32.5t85.5 32.5t31.5 91.5v458h132v-462q0 -68 -32.5 -121.5t-89 -83t-127.5 -29.5q-70 0 -126.5 29.5zM148 891h137l108 -133h-107z" />
    <glyph glyph-name="Uacute" unicode="&#xda;" horiz-adv-x="614" 
d="M179.5 23.5q-56.5 29.5 -88.5 83t-32 121.5v462h131v-458q0 -59 31 -91.5t85 -32.5t85.5 32.5t31.5 91.5v458h132v-462q0 -68 -32.5 -121.5t-89 -83t-127.5 -29.5q-70 0 -126.5 29.5zM322 891h137l-138 -133h-107z" />
    <glyph glyph-name="Ucircumflex" unicode="&#xdb;" horiz-adv-x="614" 
d="M179.5 23.5q-56.5 29.5 -88.5 83t-32 121.5v462h131v-458q0 -59 31 -91.5t85 -32.5t85.5 32.5t31.5 91.5v458h132v-462q0 -68 -32.5 -121.5t-89 -83t-127.5 -29.5q-70 0 -126.5 29.5zM261 898h91l115 -151h-97l-63 78l-63 -78h-98z" />
    <glyph glyph-name="Udieresis" unicode="&#xdc;" horiz-adv-x="614" 
d="M179.5 23.5q-56.5 29.5 -88.5 83t-32 121.5v462h131v-458q0 -59 31 -91.5t85 -32.5t85.5 32.5t31.5 91.5v458h132v-462q0 -68 -32.5 -121.5t-89 -83t-127.5 -29.5q-70 0 -126.5 29.5zM157 873h107v-116h-107v116zM349 873h107v-116h-107v116z" />
    <glyph glyph-name="Yacute" unicode="&#xdd;" horiz-adv-x="541" 
d="M336 284v-284h-131v283l-201 407h143l123 -280l123 280h144zM285 891h137l-138 -133h-107z" />
    <glyph glyph-name="Thorn" unicode="&#xde;" horiz-adv-x="567" 
d="M482.5 518q60.5 -58 60.5 -159q0 -96 -60.5 -153t-165.5 -57h-127v-149h-131v690h131v-114h127q105 0 165.5 -58zM385 288q27 25 27 71q0 50 -26.5 76.5t-74.5 26.5h-121v-199h121q47 0 74 25z" />
    <glyph glyph-name="germandbls" unicode="&#xdf;" horiz-adv-x="524" 
d="M254 100h32q33 0 48 12.5t18.5 38t3.5 79.5q0 53 -4.5 79t-21.5 39.5t-53 13.5h-23v103h31q33 0 47.5 16t14.5 48q0 34 -20 49.5t-62 15.5q-45 0 -66 -20.5t-21 -64.5v-509h-124v498q0 99 50 150.5t160 51.5q98 0 152 -43t54 -122q0 -40 -13.5 -68.5t-43.5 -48.5
q29 -16 43 -38.5t18.5 -57t4.5 -94.5q0 -90 -14.5 -138.5t-53.5 -71t-116 -22.5h-41v104z" />
    <glyph glyph-name="agrave" unicode="&#xe0;" horiz-adv-x="501" 
d="M394 479.5q53 -46.5 53 -137.5v-342h-120v45q-26 -27 -53.5 -39t-69.5 -12q-80 0 -124 43t-44 119q0 70 47 110.5t131 40.5h110v41q0 83 -83 83q-35 0 -55.5 -17.5t-20.5 -46.5v-3h-115v4q0 73 52 115.5t140 42.5q99 0 152 -46.5zM302.5 116.5q21.5 22.5 21.5 68.5v37
h-90q-78 0 -78 -63q0 -65 76 -65q49 0 70.5 22.5zM83 721h137l108 -133h-107z" />
    <glyph glyph-name="aacute" unicode="&#xe1;" horiz-adv-x="501" 
d="M394 479.5q53 -46.5 53 -137.5v-342h-120v45q-26 -27 -53.5 -39t-69.5 -12q-80 0 -124 43t-44 119q0 70 47 110.5t131 40.5h110v41q0 83 -83 83q-35 0 -55.5 -17.5t-20.5 -46.5v-3h-115v4q0 73 52 115.5t140 42.5q99 0 152 -46.5zM302.5 116.5q21.5 22.5 21.5 68.5v37
h-90q-78 0 -78 -63q0 -65 76 -65q49 0 70.5 22.5zM257 721h137l-138 -133h-107z" />
    <glyph glyph-name="acircumflex" unicode="&#xe2;" horiz-adv-x="501" 
d="M394 479.5q53 -46.5 53 -137.5v-342h-120v45q-26 -27 -53.5 -39t-69.5 -12q-80 0 -124 43t-44 119q0 70 47 110.5t131 40.5h110v41q0 83 -83 83q-35 0 -55.5 -17.5t-20.5 -46.5v-3h-115v4q0 73 52 115.5t140 42.5q99 0 152 -46.5zM302.5 116.5q21.5 22.5 21.5 68.5v37
h-90q-78 0 -78 -63q0 -65 76 -65q49 0 70.5 22.5zM196 728h91l115 -151h-97l-63 78l-63 -78h-98z" />
    <glyph glyph-name="atilde" unicode="&#xe3;" horiz-adv-x="501" 
d="M394 479.5q53 -46.5 53 -137.5v-342h-120v45q-26 -27 -53.5 -39t-69.5 -12q-80 0 -124 43t-44 119q0 70 47 110.5t131 40.5h110v41q0 83 -83 83q-35 0 -55.5 -17.5t-20.5 -46.5v-3h-115v4q0 73 52 115.5t140 42.5q99 0 152 -46.5zM302.5 116.5q21.5 22.5 21.5 68.5v37
h-90q-78 0 -78 -63q0 -65 76 -65q49 0 70.5 22.5zM100 672q23 23 40.5 33t40.5 10q20 0 35 -5t36 -16q32 -17 55 -17q20 0 35 8t41 32v-91q-23 -23 -40.5 -33t-40.5 -10q-19 0 -34 5t-36 16q-32 17 -55 17q-20 0 -35 -8t-42 -31v90z" />
    <glyph glyph-name="adieresis" unicode="&#xe4;" horiz-adv-x="501" 
d="M394 479.5q53 -46.5 53 -137.5v-342h-120v45q-26 -27 -53.5 -39t-69.5 -12q-80 0 -124 43t-44 119q0 70 47 110.5t131 40.5h110v41q0 83 -83 83q-35 0 -55.5 -17.5t-20.5 -46.5v-3h-115v4q0 73 52 115.5t140 42.5q99 0 152 -46.5zM302.5 116.5q21.5 22.5 21.5 68.5v37
h-90q-78 0 -78 -63q0 -65 76 -65q49 0 70.5 22.5zM92 703h107v-116h-107v116zM284 703h107v-116h-107v116z" />
    <glyph glyph-name="aring" unicode="&#xe5;" horiz-adv-x="501" 
d="M394 479.5q53 -46.5 53 -137.5v-342h-120v45q-26 -27 -53.5 -39t-69.5 -12q-80 0 -124 43t-44 119q0 70 47 110.5t131 40.5h110v41q0 83 -83 83q-35 0 -55.5 -17.5t-20.5 -46.5v-3h-115v4q0 73 52 115.5t140 42.5q99 0 152 -46.5zM302.5 116.5q21.5 22.5 21.5 68.5v37
h-90q-78 0 -78 -63q0 -65 76 -65q49 0 70.5 22.5zM168.5 576.5q-29.5 29.5 -29.5 73.5q0 45 29.5 74.5t73.5 29.5t73.5 -29.5t29.5 -74.5q0 -44 -29.5 -73.5t-73.5 -29.5t-73.5 29.5zM275.5 616q13.5 14 13.5 34q0 21 -13.5 35t-33.5 14t-33 -14t-13 -35q0 -20 13.5 -34
t32.5 -14q20 0 33.5 14z" />
    <glyph glyph-name="ae" unicode="&#xe6;" horiz-adv-x="795" 
d="M447 209q0 -58 25.5 -83t73.5 -25q36 0 57.5 15.5t24.5 43.5v3h118v-5q0 -45 -22.5 -82.5t-66.5 -59.5t-107 -22q-104 0 -164 63q-29 -30 -70.5 -46.5t-93.5 -16.5q-85 0 -135.5 43.5t-50.5 118.5q0 70 47 110.5t131 40.5h110v41q0 83 -83 83q-35 0 -55.5 -17.5
t-20.5 -46.5v-3h-115v4q0 73 52 115.5t140 42.5q97 0 152 -50q56 50 144 50q97 0 154.5 -59t57.5 -175v-69h-303v-14zM470.5 395q-23.5 -25 -23.5 -84v-3h180v13q0 99 -89 99q-44 0 -67.5 -25zM324 190v32h-90q-78 0 -78 -63q0 -65 76 -65q92 0 92 96z" />
    <glyph glyph-name="ccedilla" unicode="&#xe7;" horiz-adv-x="505" 
d="M342 331v6q0 37 -22.5 58t-61.5 21q-90 0 -90 -109v-94q0 -59 23.5 -84t66.5 -25q39 0 61.5 20t22.5 56v6h118v-7q0 -70 -36.5 -116t-102.5 -62l-49 -157h-114l62 152q-82 9 -128.5 62t-46.5 154v97q0 111 56.5 164t154.5 53q96 0 150 -49t54 -136v-10h-118z" />
    <glyph glyph-name="egrave" unicode="&#xe8;" horiz-adv-x="517" 
d="M168 223v-14q0 -58 26 -83t74 -25q37 0 58 15.5t23 43.5l1 3h118v-5q0 -74 -55 -119t-150 -45q-100 0 -159 57.5t-59 177.5v63q0 117 57 175.5t157 58.5q98 0 155.5 -59t57.5 -175v-69h-304zM191.5 395q-23.5 -25 -23.5 -84v-3h180v13q0 99 -89 99q-44 0 -67.5 -25z
M99 721h137l108 -133h-107z" />
    <glyph glyph-name="eacute" unicode="&#xe9;" horiz-adv-x="517" 
d="M168 223v-14q0 -58 26 -83t74 -25q37 0 58 15.5t23 43.5l1 3h118v-5q0 -74 -55 -119t-150 -45q-100 0 -159 57.5t-59 177.5v63q0 117 57 175.5t157 58.5q98 0 155.5 -59t57.5 -175v-69h-304zM191.5 395q-23.5 -25 -23.5 -84v-3h180v13q0 99 -89 99q-44 0 -67.5 -25z
M273 721h137l-138 -133h-107z" />
    <glyph glyph-name="ecircumflex" unicode="&#xea;" horiz-adv-x="517" 
d="M168 223v-14q0 -58 26 -83t74 -25q37 0 58 15.5t23 43.5l1 3h118v-5q0 -74 -55 -119t-150 -45q-100 0 -159 57.5t-59 177.5v63q0 117 57 175.5t157 58.5q98 0 155.5 -59t57.5 -175v-69h-304zM191.5 395q-23.5 -25 -23.5 -84v-3h180v13q0 99 -89 99q-44 0 -67.5 -25z
M212 728h91l115 -151h-97l-63 78l-63 -78h-98z" />
    <glyph glyph-name="edieresis" unicode="&#xeb;" horiz-adv-x="517" 
d="M168 223v-14q0 -58 26 -83t74 -25q37 0 58 15.5t23 43.5l1 3h118v-5q0 -74 -55 -119t-150 -45q-100 0 -159 57.5t-59 177.5v63q0 117 57 175.5t157 58.5q98 0 155.5 -59t57.5 -175v-69h-304zM191.5 395q-23.5 -25 -23.5 -84v-3h180v13q0 99 -89 99q-44 0 -67.5 -25z
M108 703h107v-116h-107v116zM300 703h107v-116h-107v116z" />
    <glyph glyph-name="igrave" unicode="&#xec;" horiz-adv-x="241" 
d="M59 520h123v-520h-123v520zM-39 721h137l108 -133h-107z" />
    <glyph glyph-name="iacute" unicode="&#xed;" horiz-adv-x="241" 
d="M59 520h123v-520h-123v520zM135 721h137l-138 -133h-107z" />
    <glyph glyph-name="icircumflex" unicode="&#xee;" horiz-adv-x="241" 
d="M59 520h123v-520h-123v520zM74 728h91l115 -151h-97l-63 78l-63 -78h-98z" />
    <glyph glyph-name="idieresis" unicode="&#xef;" horiz-adv-x="241" 
d="M59 520h123v-520h-123v520zM-30 703h107v-116h-107v116zM162 703h107v-116h-107v116z" />
    <glyph glyph-name="eth" unicode="&#xf0;" horiz-adv-x="509" 
d="M438.5 394q25.5 -64 25.5 -135v-41q0 -110 -55 -169.5t-156 -59.5q-100 0 -154 58.5t-54 161.5v44q0 97 46 154.5t128 57.5q40 0 69 -14l-60 86l-103 -32l-25 79l79 24l-61 87h128l39 -55l96 30l25 -79l-71 -22l24 -34q54 -77 79.5 -141zM348 255q0 110 -93 110
q-95 0 -95 -108v-46q0 -114 95 -114q93 0 93 115v43z" />
    <glyph glyph-name="ntilde" unicode="&#xf1;" horiz-adv-x="520" 
d="M54 520h121v-47q23 26 55.5 39.5t67.5 13.5q80 0 124 -50t44 -137v-339h-124v324q0 44 -22 68t-59 24q-36 0 -59.5 -24t-23.5 -68v-324h-124v520zM118 672q23 23 40.5 33t40.5 10q20 0 35 -5t36 -16q32 -17 55 -17q20 0 35 8t41 32v-91q-23 -23 -40.5 -33t-40.5 -10
q-19 0 -34 5t-36 16q-32 17 -55 17q-20 0 -35 -8t-42 -31v90z" />
    <glyph glyph-name="ograve" unicode="&#xf2;" horiz-adv-x="510" 
d="M101.5 47q-56.5 53 -56.5 165v97q0 111 56.5 164t154.5 53q97 0 153 -53t56 -164v-97q0 -112 -56 -165t-153 -53q-98 0 -154.5 53zM342 213v94q0 109 -86 109q-88 0 -88 -109v-94q0 -109 88 -109q86 0 86 109zM97 721h137l108 -133h-107z" />
    <glyph glyph-name="oacute" unicode="&#xf3;" horiz-adv-x="510" 
d="M101.5 47q-56.5 53 -56.5 165v97q0 111 56.5 164t154.5 53q97 0 153 -53t56 -164v-97q0 -112 -56 -165t-153 -53q-98 0 -154.5 53zM342 213v94q0 109 -86 109q-88 0 -88 -109v-94q0 -109 88 -109q86 0 86 109zM271 721h137l-138 -133h-107z" />
    <glyph glyph-name="ocircumflex" unicode="&#xf4;" horiz-adv-x="510" 
d="M101.5 47q-56.5 53 -56.5 165v97q0 111 56.5 164t154.5 53q97 0 153 -53t56 -164v-97q0 -112 -56 -165t-153 -53q-98 0 -154.5 53zM342 213v94q0 109 -86 109q-88 0 -88 -109v-94q0 -109 88 -109q86 0 86 109zM210 728h91l115 -151h-97l-63 78l-63 -78h-98z" />
    <glyph glyph-name="otilde" unicode="&#xf5;" horiz-adv-x="510" 
d="M101.5 47q-56.5 53 -56.5 165v97q0 111 56.5 164t154.5 53q97 0 153 -53t56 -164v-97q0 -112 -56 -165t-153 -53q-98 0 -154.5 53zM342 213v94q0 109 -86 109q-88 0 -88 -109v-94q0 -109 88 -109q86 0 86 109zM114 672q23 23 40.5 33t40.5 10q20 0 35 -5t36 -16
q32 -17 55 -17q20 0 35 8t41 32v-91q-23 -23 -40.5 -33t-40.5 -10q-19 0 -34 5t-36 16q-32 17 -55 17q-20 0 -35 -8t-42 -31v90z" />
    <glyph glyph-name="odieresis" unicode="&#xf6;" horiz-adv-x="510" 
d="M101.5 47q-56.5 53 -56.5 165v97q0 111 56.5 164t154.5 53q97 0 153 -53t56 -164v-97q0 -112 -56 -165t-153 -53q-98 0 -154.5 53zM342 213v94q0 109 -86 109q-88 0 -88 -109v-94q0 -109 88 -109q86 0 86 109zM106 703h107v-116h-107v116zM298 703h107v-116h-107v116z
" />
    <glyph glyph-name="divide" unicode="&#xf7;" horiz-adv-x="529" 
d="M217 395.5q-19 19.5 -19 47.5t19 47.5t47 19.5t47.5 -19.5t19.5 -47.5t-19.5 -47.5t-47.5 -19.5t-47 19.5zM48 333h433v-114h-433v114zM217 62.5q-19 19.5 -19 47.5t19 47.5t47 19.5t47.5 -19.5t19.5 -47.5t-19 -47.5t-48 -19.5q-28 0 -47 19.5z" />
    <glyph glyph-name="oslash" unicode="&#xf8;" horiz-adv-x="510" 
d="M415 466q50 -55 50 -157v-97q0 -112 -56 -165t-153 -53q-70 0 -118 26l-31 -49h-62l51 82q-51 56 -51 159v97q0 111 56.5 164t154.5 53q69 0 118 -27l29 47h62zM171 174l140 224q-21 18 -55 18q-88 0 -88 -109v-94q0 -22 3 -39zM339 344l-139 -223q21 -17 56 -17
q86 0 86 109v94q0 21 -3 37z" />
    <glyph glyph-name="ugrave" unicode="&#xf9;" horiz-adv-x="520" 
d="M54 210v310h124v-304q0 -55 16.5 -83.5t65.5 -28.5t65.5 27t16.5 85v304h124v-310q0 -108 -51 -162t-155 -54q-206 0 -206 216zM101 721h137l108 -133h-107z" />
    <glyph glyph-name="uacute" unicode="&#xfa;" horiz-adv-x="520" 
d="M54 210v310h124v-304q0 -55 16.5 -83.5t65.5 -28.5t65.5 27t16.5 85v304h124v-310q0 -108 -51 -162t-155 -54q-206 0 -206 216zM275 721h137l-138 -133h-107z" />
    <glyph glyph-name="ucircumflex" unicode="&#xfb;" horiz-adv-x="520" 
d="M54 210v310h124v-304q0 -55 16.5 -83.5t65.5 -28.5t65.5 27t16.5 85v304h124v-310q0 -108 -51 -162t-155 -54q-206 0 -206 216zM214 728h91l115 -151h-97l-63 78l-63 -78h-98z" />
    <glyph glyph-name="udieresis" unicode="&#xfc;" horiz-adv-x="520" 
d="M54 210v310h124v-304q0 -55 16.5 -83.5t65.5 -28.5t65.5 27t16.5 85v304h124v-310q0 -108 -51 -162t-155 -54q-206 0 -206 216zM110 703h107v-116h-107v116zM302 703h107v-116h-107v116z" />
    <glyph glyph-name="yacute" unicode="&#xfd;" horiz-adv-x="482" 
d="M473 520l-197 -565q-20 -57 -57.5 -83t-99.5 -26h-43v111h39q30 0 44.5 10.5t23.5 39.5l2 7l-176 506h131l102 -327l104 327h127zM256 721h137l-138 -133h-107z" />
    <glyph glyph-name="thorn" unicode="&#xfe;" horiz-adv-x="515" 
d="M54 690h124v-223q43 59 116 59q78 0 127 -53t49 -161v-103q0 -108 -49 -161.5t-123 -53.5q-79 0 -123 54v-204h-121v846zM346 213v94q0 58 -22.5 83.5t-60.5 25.5q-40 0 -63 -28t-23 -81v-94q0 -53 23.5 -81t65.5 -28q80 0 80 109z" />
    <glyph glyph-name="ydieresis" unicode="&#xff;" horiz-adv-x="482" 
d="M473 520l-197 -565q-20 -57 -57.5 -83t-99.5 -26h-43v111h39q30 0 44.5 10.5t23.5 39.5l2 7l-176 506h131l102 -327l104 327h127zM91 703h107v-116h-107v116zM283 703h107v-116h-107v116z" />
    <glyph glyph-name="dotlessi" unicode="&#x131;" horiz-adv-x="241" 
d="M59 520h123v-520h-123v520z" />
    <glyph glyph-name="OE" unicode="&#x152;" horiz-adv-x="871" 
d="M550 576v-171h241v-114h-241v-177h286v-114h-407v31q-60 -39 -141 -39q-108 0 -173 65t-65 210v158q0 144 66.5 209.5t172.5 65.5q80 0 140 -40v30h407v-114h-286zM419 418q0 88 -29 127.5t-89 39.5q-63 0 -91 -38.5t-28 -128.5v-149q0 -85 28 -122.5t91 -37.5
q60 0 89 38.5t29 121.5v149z" />
    <glyph glyph-name="oe" unicode="&#x153;" horiz-adv-x="813" 
d="M465 209q0 -58 25.5 -83t73.5 -25q36 0 57.5 15.5t24.5 43.5v3h118v-5q0 -74 -54.5 -119t-150.5 -45q-97 0 -152 51q-54 -51 -151 -51q-98 0 -154.5 53t-56.5 165v97q0 111 56.5 164t154.5 53q97 0 151 -51q56 51 149 51q97 0 154.5 -59t57.5 -175v-69h-303v-14zM465 308
h180v13q0 99 -89 99q-44 0 -67.5 -25t-23.5 -84v-3zM342 307q0 109 -86 109q-88 0 -88 -109v-94q0 -109 88 -109q86 0 86 109v94z" />
    <glyph glyph-name="Scaron" unicode="&#x160;" horiz-adv-x="548" 
d="M94 49.5q-62 55.5 -69 160.5h124q7 -57 36.5 -80.5t87.5 -23.5q111 0 111 91q0 41 -22 62.5t-70 29.5l-65 11q-187 31 -187 192q0 96 63.5 152t168.5 56q102 0 161.5 -54t67.5 -152h-126q-3 50 -29 73t-76 23q-51 0 -77 -23.5t-26 -64.5q0 -36 23 -57t72 -30l73 -13
q178 -32 178 -194q0 -104 -66.5 -159t-179.5 -55q-111 0 -173 55.5zM111 891h98l63 -78l63 78h97l-115 -151h-91z" />
    <glyph glyph-name="scaron" unicode="&#x161;" horiz-adv-x="474" 
d="M90 37.5q-54 43.5 -54 116.5v4h116v-2q0 -29 23.5 -45.5t61.5 -16.5q41 0 64 14.5t23 43.5q0 24 -17 37t-57 19l-55 9q-78 13 -115 48t-37 100q0 74 54.5 117.5t139.5 43.5q58 0 102.5 -19.5t69 -54t24.5 -77.5v-6h-115v3q0 27 -21.5 42t-59.5 15t-58 -15t-20 -40
q0 -23 15.5 -36t50.5 -18l61 -9q78 -11 117 -48t39 -102q0 -80 -58 -123.5t-151 -43.5q-89 0 -143 43.5zM76 721h98l63 -78l63 78h97l-115 -151h-91z" />
    <glyph glyph-name="Ydieresis" unicode="&#x178;" horiz-adv-x="541" 
d="M336 284v-284h-131v283l-201 407h143l123 -280l123 280h144zM120 873h107v-116h-107v116zM312 873h107v-116h-107v116z" />
    <glyph glyph-name="Zcaron" unicode="&#x17d;" horiz-adv-x="505" 
d="M478 115v-115h-448v115l297 461h-291v114h433v-114l-296 -461h305zM91 891h98l63 -78l63 78h97l-115 -151h-91z" />
    <glyph glyph-name="zcaron" unicode="&#x17e;" horiz-adv-x="455" 
d="M410 416l-230 -312h230v-104h-365v104l230 312h-230v104h365v-104zM66 721h98l63 -78l63 78h97l-115 -151h-91z" />
    <glyph glyph-name="florin" unicode="&#x192;" horiz-adv-x="419" 
d="M9 -39h29q34 0 49.5 13t21.5 50l43 289h-78v110h94l16 105q13 85 54 123.5t121 38.5h51v-114h-34q-31 0 -47.5 -14t-21.5 -47l-14 -92h100v-110h-116l-46 -304q-14 -89 -54.5 -127t-122.5 -38h-45v117z" />
    <glyph glyph-name="circumflex" unicode="&#x2c6;" horiz-adv-x="500" 
d="M204 728h91l115 -151h-97l-63 78l-63 -78h-98z" />
    <glyph glyph-name="caron" unicode="&#x2c7;" horiz-adv-x="500" 
d="M89 721h98l63 -78l63 78h97l-115 -151h-91z" />
    <glyph glyph-name="dotaccent" unicode="&#x2d9;" horiz-adv-x="500" 
d="M187 695h126v-99h-126v99z" />
    <glyph glyph-name="ring" unicode="&#x2da;" horiz-adv-x="500" 
d="M174.5 606.5q-29.5 29.5 -29.5 73.5q0 45 29.5 74.5t73.5 29.5t73.5 -29.5t29.5 -74.5q0 -44 -29.5 -73.5t-73.5 -29.5t-73.5 29.5zM281.5 646q13.5 14 13.5 34q0 21 -13.5 35t-33.5 14t-33 -14t-13 -35q0 -20 13.5 -34t32.5 -14q20 0 33.5 14z" />
    <glyph glyph-name="tilde" unicode="&#x2dc;" horiz-adv-x="500" 
d="M108 672q23 23 40.5 33t40.5 10q20 0 35 -5t36 -16q32 -17 55 -17q20 0 35 8t41 32v-91q-23 -23 -40.5 -33t-40.5 -10q-19 0 -34 5t-36 16q-32 17 -55 17q-20 0 -35 -8t-42 -31v90z" />
    <glyph glyph-name="gravecomb" unicode="&#x300;" horiz-adv-x="0" 
d="M-159 721h137l108 -133h-107z" />
    <glyph glyph-name="acutecomb" unicode="&#x301;" horiz-adv-x="0" 
d="M15 721h137l-138 -133h-107z" />
    <glyph glyph-name="uni0302" unicode="&#x302;" horiz-adv-x="0" 
d="M-46 728h91l115 -151h-97l-63 78l-63 -78h-98z" />
    <glyph glyph-name="tildecomb" unicode="&#x303;" horiz-adv-x="0" 
d="M-142 672q23 23 40.5 33t40.5 10q20 0 35 -5t36 -16q32 -17 55 -17q20 0 35 8t41 32v-91q-23 -23 -40.5 -33t-40.5 -10q-19 0 -34 5t-36 16q-32 17 -55 17q-20 0 -35 -8t-42 -31v90z" />
    <glyph glyph-name="uni0308" unicode="&#x308;" horiz-adv-x="0" 
d="M-150 703h107v-116h-107v116zM42 703h107v-116h-107v116z" />
    <glyph glyph-name="uni030A" unicode="&#x30a;" horiz-adv-x="0" 
d="M-73.5 606.5q-29.5 29.5 -29.5 73.5q0 45 29.5 74.5t73.5 29.5t73.5 -29.5t29.5 -74.5q0 -44 -29.5 -73.5t-73.5 -29.5t-73.5 29.5zM33.5 646q13.5 14 13.5 34q0 21 -13.5 35t-33.5 14t-33 -14t-13 -35q0 -20 13.5 -34t32.5 -14q20 0 33.5 14z" />
    <glyph glyph-name="endash" unicode="&#x2013;" horiz-adv-x="417" 
d="M0 403h417v-115h-417v115z" />
    <glyph glyph-name="emdash" unicode="&#x2014;" horiz-adv-x="833" 
d="M0 403h833v-115h-833v115z" />
    <glyph glyph-name="quoteleft" unicode="&#x2018;" horiz-adv-x="193" 
d="M155 433h-117v200l117 99v-299zM84 690z" />
    <glyph glyph-name="quoteright" unicode="&#x2019;" horiz-adv-x="193" 
d="M38 690h117v-200l-117 -99v299z" />
    <glyph glyph-name="quotesinglbase" unicode="&#x201a;" horiz-adv-x="193" 
d="M38 137h117v-200l-117 -99v299z" />
    <glyph glyph-name="quotedblleft" unicode="&#x201c;" horiz-adv-x="383" 
d="M155 433h-117v200l117 99v-299zM345 433h-117v200l117 99v-299zM201 690z" />
    <glyph glyph-name="quotedblright" unicode="&#x201d;" horiz-adv-x="383" 
d="M38 690h117v-200l-117 -99v299zM228 690h117v-200l-117 -99v299z" />
    <glyph glyph-name="quotedblbase" unicode="&#x201e;" horiz-adv-x="382" 
d="M227 137h117v-200l-117 -99v299zM38 137h117v-200l-117 -99v299z" />
    <glyph glyph-name="dagger" unicode="&#x2020;" horiz-adv-x="545" 
d="M491 360h-152v-516h-131v516h-154v114h154v216h131v-216h152v-114z" />
    <glyph glyph-name="daggerdbl" unicode="&#x2021;" horiz-adv-x="545" 
d="M339 367v-195h152v-115h-152v-213h-131v213h-154v115h154v195h-154v115h154v208h131v-208h152v-115h-152z" />
    <glyph glyph-name="bullet" unicode="&#x2022;" horiz-adv-x="453" 
d="M122 203q-41 41 -41 105t41 105t105 41q63 0 104 -41t41 -105t-41 -105t-104 -41q-64 0 -105 41z" />
    <glyph glyph-name="ellipsis" unicode="&#x2026;" horiz-adv-x="773" 
d="M38 142h139v-142h-139v142zM596 142h139v-142h-139v142zM317 142h139v-142h-139v142z" />
    <glyph glyph-name="perthousand" unicode="&#x2030;" horiz-adv-x="1254" 
d="M72.5 301.5q-32.5 37.5 -32.5 111.5v142q0 70 34.5 105.5t100.5 35.5q69 0 101.5 -35t32.5 -106v-142q0 -74 -32.5 -111.5t-101.5 -37.5q-70 0 -102.5 37.5zM595 695h99l-386 -695h-98zM201 366q5 13 5 52v124q0 38 -5.5 52t-25.5 14t-26 -14t-6 -52v-124q0 -37 5.5 -51
t26.5 -14t26 13zM626.5 31.5q-32.5 37.5 -32.5 111.5v142q0 70 34.5 105.5t100.5 35.5q69 0 101.5 -35t32.5 -106v-142q0 -74 -32.5 -111.5t-101.5 -37.5q-70 0 -102.5 37.5zM976.5 31.5q-32.5 37.5 -32.5 111.5v142q0 70 34.5 105.5t100.5 35.5q69 0 101.5 -35t32.5 -106
v-142q0 -74 -32.5 -111.5t-101.5 -37.5q-70 0 -102.5 37.5zM755 96q5 13 5 52v124q0 38 -5.5 52t-25.5 14t-26 -14t-6 -52v-124q0 -37 5.5 -51t26.5 -14t26 13zM1105 96q5 13 5 52v124q0 38 -5.5 52t-25.5 14t-26 -14t-6 -52v-124q0 -37 5.5 -51t26.5 -14t26 13z" />
    <glyph glyph-name="guilsinglleft" unicode="&#x2039;" horiz-adv-x="298" 
d="M18 264l226 227v-131l-95 -96l95 -96v-131z" />
    <glyph glyph-name="guilsinglright" unicode="&#x203a;" horiz-adv-x="308" 
d="M54 168l96 96l-96 96v131l227 -227l-227 -227v131z" />
    <glyph glyph-name="Euro" unicode="&#x20ac;" horiz-adv-x="549" 
d="M136 50.5q-55 61.5 -55 168.5v22h-54v81h54v50h-54v81h54v24q0 103 55.5 163t158.5 60q89 0 143 -47.5t60 -131.5h-112q-14 73 -89 73q-94 0 -94 -118v-23h193l-14 -81h-179v-50h172l-14 -81h-158v-23q0 -58 23 -90.5t72 -32.5q39 0 61.5 18.5t30.5 55.5h109
q-8 -89 -63.5 -134.5t-141.5 -45.5q-103 0 -158 61.5z" />
    <glyph glyph-name="trademark" unicode="&#x2122;" horiz-adv-x="810" 
d="M136 609h-106v81h303v-81h-106v-313h-91v313zM389 690h84l97 -227h3l95 227h83v-394h-84v206h-3l-63 -149h-61l-64 149h-2v-206h-85v394z" />
    <glyph glyph-name="NULL" 
 />
    <glyph glyph-name="t_t" horiz-adv-x="673" 
d="M541 433v-275q0 -53 51 -53h39v-105h-59q-71 0 -112.5 40.5t-41.5 109.5v283h-198v-275q0 -53 51 -53h39v-105h-59q-71 0 -112.5 40.5t-41.5 109.5v283h-72v87h72v102l123 43v-145h198v102l123 43v-145h100v-87h-100z" />
    <glyph glyph-name="zero.dnom" horiz-adv-x="350" 
d="M72.5 30.5q-32.5 37.5 -32.5 111.5v142q0 70 34.5 105.5t100.5 35.5q69 0 101.5 -35t32.5 -106v-142q0 -74 -32.5 -111.5t-101.5 -37.5q-70 0 -102.5 37.5zM201 95q5 13 5 52v124q0 38 -5.5 52t-25.5 14t-26 -14t-6 -52v-124q0 -37 5.5 -51t26.5 -14t26 13z" />
    <glyph glyph-name="one.dnom" horiz-adv-x="253" 
d="M97 307l-68 -48v110l69 50h102v-419h-103v307z" />
    <glyph glyph-name="two.dnom" horiz-adv-x="346" 
d="M44 80l137 171q20 25 20 47v7q0 16 -8 25.5t-23 9.5q-14 0 -22 -10t-8 -27v-9h-99v15q0 52 36 84.5t98 32.5q59 0 95 -34t36 -82v-11q0 -28 -10 -50.5t-30 -46.5l-92 -113h132v-89h-262v80z" />
    <glyph glyph-name="three.dnom" horiz-adv-x="341" 
d="M71.5 22q-34.5 29 -34.5 84v15h93v-10q0 -33 37 -33q16 0 25.5 10.5t9.5 29.5v9q0 45 -43 45h-21v85h20q18 0 27.5 10t9.5 28v8q0 37 -31 37q-33 0 -33 -31v-11h-92v10q0 56 34 87t95 31q59 0 92.5 -31t33.5 -83v-9q0 -54 -46 -80q26 -10 39.5 -35t13.5 -59v-11
q0 -57 -37 -91t-94 -34q-64 0 -98.5 29z" />
    <glyph glyph-name="four.dnom" horiz-adv-x="347" 
d="M322 57h-27v-57h-103v57h-162v89l115 273h103l-115 -273h59v88h103v-88h27v-89z" />
    <glyph glyph-name="zero.numr" horiz-adv-x="350" 
d="M72.5 301.5q-32.5 37.5 -32.5 111.5v142q0 70 34.5 105.5t100.5 35.5q69 0 101.5 -35t32.5 -106v-142q0 -74 -32.5 -111.5t-101.5 -37.5q-70 0 -102.5 37.5zM201 366q5 13 5 52v124q0 38 -5.5 52t-25.5 14t-26 -14t-6 -52v-124q0 -37 5.5 -51t26.5 -14t26 13z" />
    <glyph glyph-name="one.numr" horiz-adv-x="253" 
d="M97 578l-68 -48v110l69 50h102v-419h-103v307z" />
    <glyph glyph-name="two.numr" horiz-adv-x="346" 
d="M44 351l137 171q20 25 20 47v7q0 16 -8 25.5t-23 9.5q-14 0 -22 -10t-8 -27v-9h-99v15q0 52 36 84.5t98 32.5q59 0 95 -34t36 -82v-11q0 -28 -10 -50.5t-30 -46.5l-92 -113h132v-89h-262v80z" />
    <glyph glyph-name="three.numr" horiz-adv-x="341" 
d="M71.5 293q-34.5 29 -34.5 84v15h93v-10q0 -33 37 -33q16 0 25.5 10.5t9.5 29.5v9q0 45 -43 45h-21v85h20q18 0 27.5 10t9.5 28v8q0 37 -31 37q-33 0 -33 -31v-11h-92v10q0 56 34 87t95 31q59 0 92.5 -31t33.5 -83v-9q0 -54 -46 -80q26 -10 39.5 -35t13.5 -59v-11
q0 -57 -37 -91t-94 -34q-64 0 -98.5 29z" />
    <glyph glyph-name="four.numr" horiz-adv-x="347" 
d="M322 328h-27v-57h-103v57h-162v89l115 273h103l-115 -273h59v88h103v-88h27v-89z" />
    <glyph glyph-name="zero.sups" horiz-adv-x="350" 
d="M72.5 460.5q-32.5 37.5 -32.5 111.5v142q0 70 34.5 105.5t100.5 35.5q69 0 101.5 -35t32.5 -106v-142q0 -74 -32.5 -111.5t-101.5 -37.5q-70 0 -102.5 37.5zM201 525q5 13 5 52v124q0 38 -5.5 52t-25.5 14t-26 -14t-6 -52v-124q0 -37 5.5 -51t26.5 -14t26 13z" />
    <glyph glyph-name="one.sups" horiz-adv-x="253" 
d="M97 737l-68 -48v110l69 50h102v-419h-103v307z" />
    <glyph glyph-name="two.sups" horiz-adv-x="346" 
d="M44 510l137 171q20 25 20 47v7q0 16 -8 25.5t-23 9.5q-14 0 -22 -10t-8 -27v-9h-99v15q0 52 36 84.5t98 32.5q59 0 95 -34t36 -82v-11q0 -28 -10 -50.5t-30 -46.5l-92 -113h132v-89h-262v80z" />
    <glyph glyph-name="three.sups" horiz-adv-x="341" 
d="M71.5 452q-34.5 29 -34.5 84v15h93v-10q0 -33 37 -33q16 0 25.5 10.5t9.5 29.5v9q0 45 -43 45h-21v85h20q18 0 27.5 10t9.5 28v8q0 37 -31 37q-33 0 -33 -31v-11h-92v10q0 56 34 87t95 31q59 0 92.5 -31t33.5 -83v-9q0 -54 -46 -80q26 -10 39.5 -35t13.5 -59v-11
q0 -57 -37 -91t-94 -34q-64 0 -98.5 29z" />
    <glyph glyph-name="four.sups" horiz-adv-x="347" 
d="M322 487h-27v-57h-103v57h-162v89l115 273h103l-115 -273h59v88h103v-88h27v-89z" />
    <glyph glyph-name="glyph249" horiz-adv-x="204" 
d="M250 695h99l-386 -695h-98z" />
    </font>
</defs>
</svg>
